Más detalles | The Protector 2 en Streaming | jay z fuck all nite ,
 


 

DNS SERVER AENDERNum der staatlichen Zensur zu umgehen. Sollten wir von eurem Provider geseprrt werden, nutzt den TOR BROWSER oder ändert euren DNS SERVER.

Filmwünsche können bei uns im Forum abgegeben werden

Wir Speichern Nicht




 
 
 
Top Releases
Avengers.2012.MULTi.COMPLETE...
Der.Hauptmann.2017.German.AC...
Half.Nelson.2006.German.DL.1...
Half.Nelson.2006.German.720p...
The.Kings.Ring.2018.DUAL.COM...
Stronger.2017.German.DL.AC3....
Junges.Licht.2016.German.AC3...
Freddy.Eddy.2016.GERMAN.1080...
Freddy.Eddy.2016.GERMAN.720p...
Freddy.Eddy.2016.GERMAN.1080...

Cinedubs
Skyscraper.2018.German.AC3LD...
Jurassic.World.2.Das.gefalle...
Jurassic.World.2.Das.gefalle...
Jurassic.World.2.Das.gefalle...
Skyscraper.2018.German.AC3LD...
Skyscraper.2018.German.AC3LD...
Die.Biene.Maja.2.Die.Honigsp...
Die.Biene.Maja.2.Die.Honigsp...
Loving.Pablo.2017.German.AC3...
Loving.Pablo.2017.German.AC3...

Neuerscheinungen 2017-18
Ignatius.von.Loyola.2016.GER...
Half.Nelson.2006.LIMITED.COM...
Freddy.Eddy.2016.GERMAN.COMP...
Ignatius.von.Loyola.2016.GER...
Dont.Move.Serpent.2017.MULTi...
Proud.Mary.2018.MULTi.COMPLE...
Open.the.Door.Nightworld.201...
Birth.of.the.Dragon.2016.MUL...
Birth.of.the.Dragon.2016.Ger...
Birth.of.the.Dragon.2016.Ger...

XXX
TransAngels.18.01.08.Foxxy.S...
Tiny4K.18.07.05.Ava.Haze.Cre...
Private.18.07.05.Daniella.Ma...
PublicPickUps.18.07.06.Nicol...
StrandedTeens.18.08.27.Eliza...
SapphicErotica.18.07.06.Kitt...
SapphicErotica.18.08.27.Andr...
SpyFam.18.08.27.Jasmine.Grey...
TransAngels.18.01.22.Kimberl...
RKPrime.18.07.06.Lela.Star.B...
SisLovesMe.18.07.06.Vienna.R...
PureTaboo.18.07.05.Kenna.Jam...
Spizoo.18.07.05.Jessica.Jaym...
PropertySex.18.07.06.Ashley....
TittyAttack.18.08.27.Kenzie....
Private.18.08.27.Julia.De.Lu...
TheLifeErotic.18.07.06.Raisa...
RKPrime.18.08.27.Victoria.Ju...
PublicAgent.18.07.05.Paulina...
TransAngels.18.01.15.Alisia....

3D
Avengers.Infinity.War.3D.201...
Avengers.Infinity.War.3D.201...
Rampage.Big.Meets.Bigger.3D....
Rampage.Big.Meets.Bigger.3D....
Rampage.Big.Meets.Bigger.3D....
Winter.Games.3D.2013.DUAL.CO...
Tomb.Raider.3D.2018.German.7...
Rampage.Big.Meets.Bigger.3D....
Rampage.Big.Meets.Bigger.3D....
Tomb.Raider.3D.2018.MULTi.CO...
Pacific.Rim.Uprising.3D.2018...
Ready.Player.One.3D.2018.Ger...
Rampage.-.Big.Meets.Bigger.2...
Ready.Player.One.2018.3D.HOU...
Ready.Player.One.2018.3D.HSB...

Old_Stuff
Vikings.S02.German.DL.1080p....
Be.Kind.Rewind.Abgedreht.200...
Be.Kind.Rewind.Abgedreht.200...
Dracula.The.Dark.Lord.2012.G...
21.2008.German.DL.1080p.BluR...
Achtung.fertig.WK.Swissgerma...
The.Ouija.Exorcism.2015.MULT...
Meine.liebe.Rabenmutter.germ...
Da.Vincis.Demons.S01.Complet...
Eragon.Das.Vermaechtnis.der....
Adele.und.das.Geheimnis.des....
Die.fabelhafte.Welt.der.Amel...
Haus.des.Geldes.S01.German.M...
How.I.Met.Your.Mother.S01.Ge...
The.Dark.Knight.Rises.2012.M...

Filme
Marvels.Iron.Fist.S02.COMPLE...
Atypical.S02.COMPLETE.German...
Atypical.S02.COMPLETE.German...
Stichtag.Schluss.mit.gemuetl...
Atypical.S01.COMPLETE.German...
Atypical.S01.COMPLETE.German...
Marvels.Iron.Fist.S02.German...
Coldwater.Nur.das.Ueberleben...
Tom.Clancys.Jack.Ryan.S01.CO...
Half.Nelson.2006.German.DL.1...
Cold.War.2012.German.1080p.B...
The.Last.Boy.Scout.1991.Germ...
Forrest.Gump.4K.REMASTERED.1...
Housefull.Das.Spiel.mit.der....
Elvira.Herrscherin.Der.Dunke...
Mr.Mercedes.S02.German.DD+51...
Mr.Mercedes.S02.German.DD+51...
The.Handmaids.Tale.S02.Germa...
The.Handmaids.Tale.S02.Germa...
Manta.Manta.1991.German.DD51...
Manta.der.Film.1991.German.D...
Die.Stunde.der.Patrioten.199...
El.Topo.1970.German.AC3D.DL....
Eine.Reihe.betrueblicher.Ere...

 
 
Ignatius.von.Loyola.2016.GERMAN.720p.BluRay.x264-UNiVERSUM

Jahr: 2016
Genre: Biografie, Drama
Sprache: Deutsch DTS
Laufzeit: 2h 6mn
Bitrate: 2 880 Kbps
Format: MKV
Größe: 2.54 GiB
Release:

Beschreibung:

Ignatius von Loyola gilt als ‘Der erste Jesuit’ und hat mit seinem Wirken die christliche Welt bis heute stark beeinflusst. Wir schreiben das Jahr 1521: Die Karrierepläne des ehrgeizigen jungen Adligen Inigo scheinen sich zu zerschlagen, als er bei einer Schlacht so schwer am Bein verletzt wird, dass er seine Militärlaufbahn an den Nagel hängen muss. Doch dann erfährt er eine tiefgreifende Veränderung und wird ein Nachfolger Christi. Er lebt zurückgezogen in einer Höhle, um Gott näherzukommen, bevor er zum Pilger wird und nach Jerusalem reist. Später studiert er, kommt nach Rom und Paris und gründet dort am Montmartre mit sechs weiteren überzeugten Christen die Gruppe, aus der später der Jesuitenorden hervorgehen wird. Ignatius wird zu einem einflussreichen und inspirierenden Mann, der die Kirche seiner Zeit stark prägt.



Complete name                            : ignatius.von.loyola.2016.german.720p.bluray.x264-universum.mkv
Format                                   : Matroska
Format version                           : Version 4 / Version 2
File size                                : 2.54 GiB
Duration                                 : 2h 6mn
Overall bit rate                         : 2 880 Kbps
Encoded date                             : UTC 2018-09-07 06:04:06
Writing application                      : mkvmerge v7.9.0 ('Birds') 64bit
Writing library                          : libebml v1.3.1 + libmatroska v1.4.2
DURATION                                 : 01:55:49.024000000
NUMBER_OF_FRAMES                         : 11
NUMBER_OF_BYTES                          : 432
_STATISTICS_WRITING_APP                  : mkvmerge v7.9.0 ('Birds') 64bit
_STATISTICS_WRITING_DATE_UTC             : 2018-09-07 06:04:06
_STATISTICS_TAGS                         : BPS DURATION NUMBER_OF_FRAMES NUMBER_OF_BYTES

Video
ID                                       : 1
Format                                   : AVC
Format/Info                              : Advanced Video Codec
Format profile                           : [email protected]
Format settings, CABAC                   : Yes
Format settings, ReFrames                : 5 frames
Codec ID                                 : V_MPEG4/ISO/AVC
Duration                                 : 2h 6mn
Bit rate                                 : 1 671 Kbps
Width                                    : 1 280 pixels
Height                                   : 528 pixels
Display aspect ratio                     : 2.40:1
Frame rate mode                          : Constant
Frame rate                               : 23.976 fps
Color space                              : YUV
Chroma subsampling                       : 4:2:0
Bit depth                                : 8 bits
Scan type                                : Progressive
Bits/(Pixel*Frame)                       : 0.103
Stream size                              : 1.47 GiB (58%)
Writing library                          : x264 core 155 r2901 7d0ff22
Encoding settings                        : cabac=1 / ref=5 / deblock=1:-1:-1 / analyse=0x3:0x133 / me=umh / subme=8 / psy=1 / psy_rd=1.00:0.15 / mixed_ref=1 / me_range=16 / chroma_me=1 / trellis=2 / 8x8dct=1 / cqm=0 / deadzone=21,11 / fast_pskip=0 / chroma_qp_offset=-3 / threads=12 / lookahead_threads=2 / sliced_threads=0 / nr=0 / decimate=1 / interlaced=0 / bluray_compat=0 / constrained_intra=0 / bframes=3 / b_pyramid=2 / b_adapt=1 / b_bias=0 / direct=3 / weightb=1 / open_gop=0 / weightp=2 / keyint=250 / keyint_min=23 / scenecut=40 / intra_refresh=0 / rc_lookahead=40 / rc=crf / mbtree=1 / crf=20.0 / qcomp=0.60 / qpmin=10 / qpmax=69 / qpstep=4 / ip_ratio=1.40 / aq=1:1.00
Default                                  : Yes
Forced                                   : No
DURATION                                 : 02:06:06.226000000
NUMBER_OF_FRAMES                         : 181408
NUMBER_OF_BYTES                          : 1632552071
_STATISTICS_WRITING_APP                  : mkvmerge v7.9.0 ('Birds') 64bit
_STATISTICS_WRITING_DATE_UTC             : 2018-09-07 06:04:06
_STATISTICS_TAGS                         : BPS DURATION NUMBER_OF_FRAMES NUMBER_OF_BYTES

Audio
ID                                       : 2
Format                                   : DTS
Format/Info                              : Digital Theater Systems
Mode                                     : 16
Format settings, Endianness              : Big
Codec ID                                 : A_DTS
Duration                                 : 2h 6mn
Bit rate mode                            : Constant
Bit rate                                 : 1 152 Kbps
Channel(s)                               : 6 channels
Channel positions                        : Front: L C R, Side: L R, LFE
Sampling rate                            : 48.0 KHz
Bit depth                                : 24 bits
Compression mode                         : Lossy
Stream size                              : 1.01 GiB (40%)
Title                                    : dts
Language                                 : German
Default                                  : Yes
Forced                                   : No

Text
ID                                       : 3
Format                                   : UTF-8
Codec ID                                 : S_TEXT/UTF8
Codec ID/Info                            : UTF-8 Plain Text
Title                                    : forced
Language                                 : German
Default                                  : Yes
Forced                                   : No


Download:
Share Online Share OnlineShare OnlineShare Online
 

Kommentare